#TITLE:Tonight,I feel close to you;
#SUBTITLE:;
#ARTIST:仓木麻衣&孙燕?;
#TITLETRANSLIT:;
#SUBTITLETRANSLIT:;
#ARTISTTRANSLIT:;
#CREDIT:;
#BANNER:tonight,I feel close to you-logo.jpg;
#BACKGROUND:tonight,I feel close to you.jpg;
#LYRICSPATH:;
#CDTITLE:Lan.png;
#MUSIC:Tonight,I feel close to you.mp3;
#OFFSET:-0.040;
#SAMPLESTART:100.000;
#SAMPLELENGTH:12.000;
#SELECTABLE:YES;
#BPMS:0.000=92.030;
#STOPS:;
#BGCHANGES:;
// cache tags:
#FIRSTBEAT:4.000;
#LASTBEAT:211.750;
#SONGFILENAME:Songs/Super Dancer Online/Tonight,I feel close to you/Tonight,I feel close to you.sm;
#HASMUSIC:1;
#HASBANNER:1;
#MUSICLENGTH:140.883;
// end cache tags

//---------------dance-single - 标准----------------
#NOTES:
     dance-single:
     标准:
     Hard:
     7:
     0.528,0.507,0.390,0.241,0.245,414.000,55.000,34.000,0.000,42.000:


0000
0000
0000
0000
,
1000
0010
0100
1000
0010
0100
0001
0010
,
0100
0001
0010
0001
1000
0010
0001
1000
,
0010
0010
0100
0100
1000
1000
0001
0001
,
0100
0001
1000
0010
0100
1000
0001
0100
,
0010
0010
0010
0000
0100
0100
0100
0000
1000
1000
1000
0000
0001
0001
0001
0000
,
0100
0100
0100
0000
0001
0001
0001
0000
1000
1000
1000
0000
0010
0010
0010
0000
,
1001
0100
0110
0010
1001
0110
1011
0000
,
1100
0100
0011
0010
1100
0011
1110
0000
,
1000
0100
0001
0010
1000
0001
1000
0001
,
1200
0000
0010
0000
0001
0000
0010
0000
1000
0000
0010
0000
0001
0000
0010
0300
,
1000
0000
0100
0000
0010
0000
0001
0000
0100
0010
0010
0000
1000
0001
0001
0000
,
0100
0010
0010
0000
1000
0001
0001
0000
0010
0000
0100
0000
1000
0000
0111
0000
,
1000
0010
0100
0000
0010
1000
0001
0000
0100
0001
0010
0000
1000
0010
0001
0000
,
0100
0010
1000
0001
0010
0100
1000
0101
,
0010
0001
1000
0010
0100
0000
0001
0010
0100
0001
1000
0000
0010
1000
0100
1000
,
0001
0000
1000
0000
0100
0000
0010
0000
0001
0010
1000
0000
0010
1000
0100
0000
,
0001
0000
1000
0000
0001
1000
0001
1000
0001
0000
1000
0001
1000
0001
1000
0000
,
2012
0000
0000
0000
0100
0000
0000
0000
0010
0000
0000
0000
0100
0000
0000
3003
,
0000
0000
0001
1000
0110
0001
1001
0010
,
2121
0000
0000
0000
0000
0000
0000
3030
1212
0000
0000
0000
0000
0000
0000
0303
,
0000
0000
0000
0100
0010
0001
1000
0000
0100
0010
1001
0000
0010
0001
1100
0000
,
0212
0000
0000
0000
1000
0000
0303
0010
1000
0010
0000
0000
0100
0000
0000
0001
,
0010
1000
0001
0000
0010
0001
0010
0000
1200
0000
0001
0000
0010
0000
0000
0300
,
0012
0000
0100
0000
0010
0000
1000
0000
0100
0000
0010
0000
1000
0000
0100
0003
,
2010
0000
0000
0000
0010
0000
0000
3000
0201
0000
0000
0000
0001
0000
0000
0300
,
1020
0000
0000
0000
1000
0000
0000
0030
0000
0000
0001
0000
0010
0000
0100
0000
,
1000
0010
0001
0000
0100
1000
0010
0000
1000
0100
0001
0000
0010
0001
0100
0000
,
2100
0000
0010
0000
0100
0000
0010
3000
0100
0000
1000
0010
0100
0000
0010
0010
,
0001
0000
1000
0100
0010
0000
0100
0001
0001
0000
1000
0001
0100
0000
0010
0100
,
1012
0000
0000
0000
1100
0000
0000
0003
0010
0000
1000
0010
1000
0000
0001
0100
,
0001
0000
0100
1000
0010
0000
0100
0001
0010
0000
1000
0100
0001
0100
1000
0000
,
2012
0000
0100
0000
0010
0000
0100
3003
0010
0000
0000
0000
0001
0010
1000
0100
,
0001
0000
0000
0000
0100
0000
0010
0000
0001
0010
0100
0000
0010
0000
0001
0010
,
2001
0000
0000
0000
0100
0000
0000
0000
0001
0000
0000
0000
0010
0000
0000
3000
,
0002
0000
0000
0000
0000
0000
0003
0100
0001
0010
0001
0000
0010
0100
1000
0000
,
0100
0000
0001
0000
0010
0000
0100
0001
0010
0000
0000
0000
1000
0000
0001
0000
,
0200
0000
0000
0000
0000
0000
0300
0001
0010
0000
0001
0000
0100
1000
0010
0000
,
1000
0000
0000
0100
0010
0000
1000
0000
0012
0000
0000
0000
0100
0000
0000
0003
,
2210
0000
0000
0000
0010
0000
0000
3300
0010
0000
0001
0000
0010
0000
0100
0000
,
0001
0000
0100
0001
0010
0000
1000
0001
0010
0000
0000
0000
0100
0000
0100
0000
,
1000
0100
0010
1000
0001
0100
0010
0100
,
2001
0010
0001
0010
3001
0010
0100
0010
,
2102
0000
0010
0000
0100
0000
0010
0000
0100
0000
0010
3003
0100
0000
0010
0000
,
1101
0000
0000
0000
0100
0000
0010
0100
0001
0000
0010
0000
1000
0001
0100
0000
,
0112
0000
0000
0000
1010
0000
0000
0000
1010
0000
0000
0000
1100
0000
0000
0003
,
2101
0000
0000
0000
0011
0000
0000
0000
0110
0000
0000
0000
0101
0000
0000
3000
,
0112
0000
0000
0000
1010
0000
0000
0000
0110
0000
0000
0000
1100
0000
0000
0003
,
2110
0000
0000
0000
0011
0000
0000
0000
0110
0000
0000
0000
0011
0000
0000
3000
,
1000
0100
0010
0001
0100
0010
1000
0001
,
0210
0000
0001
0000
1000
0000
0010
0000
0001
0000
0000
0300
0010
1000
0010
0000
,
0201
0000
0001
0000
0001
0000
0001
0000
0001
0000
0001
0000
0001
0000
0001
0300
,
2010
0000
0000
0000
0010
0000
0000
0000
0010
0000
0000
0000
0010
0000
0000
3000
;
